#TITLE:Jump Jump Jump;
#SUBTITLE:Expi3nze & sdo;
#ARTIST:Koyote;
#TITLETRANSLIT:;
#SUBTITLETRANSLIT:;
#ARTISTTRANSLIT:;
#CREDIT:;
#BANNER:bn.png;
#BACKGROUND:bg.png;
#LYRICSPATH:;
#CDTITLE:cdtitle.png;
#MUSIC:Jump Jump Jump.mp3;
#OFFSET:-0.396;
#SAMPLESTART:62.301;
#SAMPLELENGTH:12.000;
#SELECTABLE:YES;
#BPMS:0.000=126.000,3.000=63.000,3.250=252.000,3.750=63.000,4.000=252.000,4.500=126.000,6.000=63.000,6.333=252.000,7.000=63.000,7.250=252.000,7.750=63.000,8.000=252.000,8.500=126.000,10.000=63.000,10.333=252.000,11.000=63.000,11.250=252.000,11.750=63.000,12.000=252.000,12.500=126.000,22.000=63.000,22.333=252.000,23.000=126.000,26.000=63.000,26.333=252.000,27.000=126.000,133.000=63.000,133.333=252.000,134.000=63.000,134.333=252.000,135.000=126.000,137.000=63.000,137.333=252.000,138.000=63.000,138.333=252.000,139.000=126.000,149.000=63.000,149.333=252.000,150.000=63.000,150.333=252.000,151.000=126.000,153.000=63.000,153.333=252.000,154.000=63.000,154.333=252.000,155.000=126.000,198.000=63.000,198.333=252.000,199.000=126.000,202.000=63.000,202.333=252.000,203.000=126.000;
#STOPS:;
#BGCHANGES:;
// cache tags:
#FIRSTBEAT:3.000;
#LASTBEAT:210.750;
#SONGFILENAME:Songs/SDO pack 2/Jump Jump Jump (Koyote)/Jump Jump Jump.sm;
#HASMUSIC:1;
#HASBANNER:1;
#MUSICLENGTH:102.226;
// end cache tags

//---------------dance-single - ----------------
#NOTES:
     dance-single:
     :
     Hard:
     18:
     1.000,1.000,1.000,0.333,0.734,546.000,363.000,34.000,0.000,134.000:
0000
0000
0000
0000
0000
0000
0000
0000
0000
0000
0000
0000
1101
0000
0000
1011
,
0000
0000
1110
0000
0001
0000
1110
0000
0112
0000
0000
0000
1113
0000
0000
1101
,
0000
0000
0111
0000
1000
0000
0111
0000
1102
0000
0000
0000
1113
0000
0000
0111
,
0000
0000
1011
0000
0100
0000
1011
0000
1100
0000
0011
0000
1120
0001
1100
0001
,
1100
0001
1100
0001
1100
0001
1100
0001
1000
1000
0001
0001
1130
0000
1100
0011
,
1000
0011
1100
0011
1100
0000
0110
0000
0112
0000
0000
0000
1103
0000
0011
0011
,
1000
0011
1100
0011
1100
0000
0110
0000
1012
0000
0000
0000
1103
0000
1100
0011
,
1000
0011
1100
0011
1100
0000
0110
0000
1011
0000
1110
0000
0111
0000
1110
0001
,
1000
0001
1110
0001
1000
0001
1110
0000
0011
0011
1100
1100
0011
0000
0011
1100
,
0001
1100
0011
1100
0011
0000
0210
0000
0001
0000
1300
0000
0110
0000
0011
1100
,
0001
1100
1100
0011
1100
0000
0001
0001
1220
1000
0001
0001
1330
0000
0011
0011
,
1000
0011
1100
0011
1100
0000
1100
0001
1000
0000
0111
0000
1000
0000
0111
1000
,
0001
0001
1110
0000
0001
0000
1000
0000
0011
0011
1100
1100
0011
0000
1100
0011
,
1000
0011
0011
1100
0011
0000
0021
0000
1000
0000
0031
0000
1100
0000
1100
0011
,
1000
0011
1100
0011
1100
0000
1100
0010
2102
0100
0010
0010
3103
0000
0011
0011
,
0100
0011
0011
1100
0011
0000
0011
1000
0001
0000
1110
0000
0001
0000
1110
0001
,
1000
1000
0111
0000
1000
0000
0001
0000
0110
0110
1001
1001
0110
0000
0011
1000
,
0111
0000
1100
0000
0110
0000
1100
0000
1011
0000
0110
0000
1000
0000
0111
1000
,
0001
0000
1110
0000
1000
0000
0111
0000
0001
0000
1110
0000
0011
0000
0110
0001
,
1100
0001
1100
0000
0110
0000
1100
0000
1011
0000
0110
0000
0001
0000
0110
1000
,
0001
0001
1110
0000
1000
0000
0111
0000
1100
1100
0011
0011
1100
0000
0110
0001
,
1110
0001
0110
0000
0011
0000
0110
0000
1101
0000
0110
0000
0001
0000
1110
0001
,
1000
1000
0111
0000
1000
0000
0111
0000
0110
0000
1101
0000
1000
0000
0110
0001
,
1110
0001
0110
0000
1000
0000
0110
0000
1101
0000
0110
0000
1100
0000
0001
0001
,
1000
1000
0012
0000
1100
0000
0110
0000
2113
0000
0011
0000
3110
0000
0001
0000
,
1110
0001
0110
0011
1110
0011
0110
1000
,
0111
1000
0011
1101
1101
0110
1100
0001
,
1110
0011
1000
0110
1101
0011
1000
0001
,
1110
0000
0001
0000
0110
0000
0011
0000
1100
1100
0011
0011
1100
0000
0001
0000
,
1110
0001
1100
0110
1011
0110
0011
1000
,
0111
0000
1000
0000
0011
0000
1110
0000
0111
0000
1100
0000
0001
0000
1110
0001
,
1000
1000
0111
0000
1000
0000
0011
0000
0110
0000
1100
0000
0211
0000
1000
1000
,
0001
0001
1000
1000
0321
0001
1000
1000
0231
0001
1000
1000
0311
0000
0110
0000
,
0011
0000
0110
0000
2101
0000
0000
0000
3211
0000
0000
0000
1311
0000
0110
0001
,
1100
0001
0110
0000
2110
0000
0000
0000
3112
0000
0000
0000
1103
0000
0110
1000
,
0011
1000
0110
0000
1100
0000
0011
0000
0110
0000
1100
0000
0001
0000
0110
1000
,
0011
1000
0110
0000
1000
0000
0001
0000
1100
1100
0011
0011
1100
0000
0110
1000
,
0011
1000
0110
0000
1201
0000
0000
0000
1312
0000
0000
0000
0113
0000
1100
0001
,
0110
1000
0011
0000
2110
0000
0000
0000
3112
0000
0000
0000
0113
0000
1100
0001
,
1110
0001
1100
0000
0110
0000
0011
0000
1110
0000
0011
0000
0010
0000
1100
0000
,
0011
1000
0201
0001
1000
1000
0321
0001
1000
1000
0001
0001
1130
0000
0011
1100
,
0001
1100
1100
0011
1100
0000
0012
0000
1000
0000
0013
0000
0110
0000
1100
0011
,
1000
0011
1100
1100
0011
0000
1000
1000
0221
0001
1000
1000
0331
0000
0110
0110
,
1000
0011
0011
1100
0011
0000
1100
0001
1000
0000
0111
0000
1000
0000
0111
0000
,
1001
0001
1110
0000
0001
0000
0010
0000
1100
1100
0011
0011
1100
0000
1100
0011
,
0100
0011
0011
1100
0011
0000
0210
0000
0001
0000
1300
0000
0110
0000
0011
1100
,
0001
1100
0011
1100
0011
0000
1000
1000
0221
0001
1000
1000
0331
0000
1100
1100
,
0001
1100
0011
1100
0001
0000
1110
0000
0001
0000
1110
0000
0001
0000
1110
0001
,
1000
1000
0111
0000
1000
0000
0111
0000
1100
1100
0011
0011
1100
0000
1100
0011
,
1000
0011
0011
1100
1100
0000
0111
0000
1120
0000
0000
0000
1131
0000
0011
0011
,
1000
0011
0011
1100
0011
0000
1110
0000
0211
0000
0000
0000
1311
0000
1100
0011
,
1000
0011
1100
0011
1100
0000
0111
0000
1011
0000
1101
0000
0010
0000
1101
0000
,
0010
0000
1101
0000
0010
0000
1101
0000
0011
0011
1100
1100
0000
0000
0000
0000
,
0000
0000
0000
0000
,
0000
0000
0000
0000
,
0000
0000
0000
0000
,
0000
0000
0000
0000
,
0000
0000
0000
0000
,
0000
0000
0000
0000
,
0000
0000
0000
0000
;
